<?xml version="1.0" standalone="no"?>
<!DOCTYPE svg PUBLIC "-//W3C//DTD SVG 1.1//EN" "http://www.w3.org/Graphics/SVG/1.1/DTD/svg11.dtd" >
<svg xmlns="http://www.w3.org/2000/svg">
<metadata>
This is a custom SVG webfont generated by Font Squirrel.
Copyright   : Copyright c 2006 by Georg Seifert All rights reserved
Designer    : Georg Seifert
Foundry     : Georg Seifert
Foundry URL : wwwfontsinfo
</metadata>
<defs>
<font id="webfont5U77A2Tz" horiz-adv-x="1118" >
<font-face units-per-em="2048" ascent="1638" descent="-410" />
<missing-glyph horiz-adv-x="514" />
<glyph unicode=" "  horiz-adv-x="514" />
<glyph unicode="&#x09;" horiz-adv-x="514" />
<glyph unicode="&#xa0;" horiz-adv-x="514" />
<glyph unicode="!" horiz-adv-x="610" d="M547 1522l-21 -1004h-327l-19 1004h367zM573 176q0 -84 -58 -144.5t-138 -60.5q-84 0 -143.5 60.5t-59.5 144.5q0 80 58.5 139.5t144.5 59.5q82 0 139 -59.5t57 -139.5z" />
<glyph unicode="&#x22;" horiz-adv-x="825" d="M369 1518l-43 -385h-265l-41 385v243h349v-243zM805 1518l-41 -385h-266l-37 385v243h344v-243z" />
<glyph unicode="#" horiz-adv-x="1286" d="M1210 256h-153v-457h-326v457h-166v-457h-323v457h-170v281h168v262h-168v280h170v455h323v-455h160v455h330v-455h159v-278h-159v-264h155v-281zM725 537v264h-160v-264h160z" />
<glyph unicode="$" horiz-adv-x="1021" d="M938 1470l-88 -276q-135 66 -256 66q-66 0 -108 -28t-42 -79q0 -55 52.5 -114.5t128 -119t150.5 -130t127 -173t52 -221.5q0 -174 -107.5 -277.5t-285.5 -129.5l-2 -281h-270l24 281q-168 16 -272 57l94 320q170 -96 307 -97q66 0 104 30t38 81q0 57 -52.5 118.5 t-126 122t-147.5 130t-126 168t-52 210.5q0 168 102.5 273.5t266.5 134.5l8 231h264l-21 -229q121 -21 238 -68z" />
<glyph unicode="%" horiz-adv-x="1402" d="M1313 1186l-1012 -1045l-174 201l1008 1044zM707 1186q0 -139 -98.5 -237.5t-233.5 -98.5q-139 0 -225.5 95t-86.5 241q0 143 90.5 239.5t238 96.5t231.5 -90t84 -246zM449 1186q0 100 -66 100q-61 0 -61 -100q0 -102 61 -103q66 1 66 103zM1358 311q0 -143 -92 -240.5 t-234 -97.5q-139 0 -229 96.5t-90 241.5q0 141 90 237.5t237.5 96.5t232.5 -90t85 -244zM1100 311q0 43 -17.5 72t-48.5 29q-63 0 -63 -101q0 -104 63 -104q66 0 66 104z" />
<glyph unicode="&#x26;" horiz-adv-x="1232" d="M1053 1176q0 -121 -77 -219.5t-212 -200.5q63 -66 510 -500l-221 -272l-172 168q-182 -172 -412 -172q-207 0 -313.5 109.5t-106.5 289.5q0 240 221 412q-86 143 -86 311q0 197 111 309.5t319 112.5q199 0 319 -95t120 -253zM512 242q66 0 166 104l-201 197 q-86 -80 -86 -148q0 -57 37 -105t84 -48zM522 1137q0 -68 51 -150q129 90 129 172q0 47 -27.5 72.5t-62.5 25.5q-39 0 -64.5 -34.5t-25.5 -85.5z" />
<glyph unicode="'" horiz-adv-x="387" d="M369 1518l-43 -385h-265l-41 385v243h349v-243z" />
<glyph unicode="(" horiz-adv-x="698" d="M702 -279l-241 -141q-371 469 -371 1133q0 344 100.5 599t276.5 517l233 -139q-6 -14 -41 -89l-59 -128q-25 -53 -60.5 -151.5t-58 -184.5t-39 -198t-16.5 -218q0 -513 276 -1000z" />
<glyph unicode=")" horiz-adv-x="700" d="M612 713q0 -180 -30.5 -345t-92 -311.5t-117 -248t-136.5 -230.5l-240 139q66 129 103.5 214t83.5 215t68.5 268.5t22.5 290.5q0 68 -5 134t-10 116.5t-19.5 112.5t-21.5 97t-30.5 98.5t-30.5 86t-38 89t-38 80t-43 88t-42 85.5l250 137q117 -170 185.5 -298t124.5 -345 t56 -473z" />
<glyph unicode="*" horiz-adv-x="1071" d="M717 1145l-64 -350l252 166l109 -332l-320 -68l246 -260l-283 -207l-125 299l-106 -305l-287 205l228 266l-306 47l107 334l248 -147l-76 352h377z" />
<glyph unicode="+" horiz-adv-x="1071" d="M975 440h-283v-405h-315v405h-283v279h283v377h315v-377h283v-279z" />
<glyph unicode="," horiz-adv-x="593" d="M256 -420l-195 174q129 141 129 232q0 37 -43 94t-43 123q0 80 56.5 130t140.5 50q109 0 168 -80t59 -209q0 -246 -272 -514z" />
<glyph unicode="-" horiz-adv-x="768" d="M707 516h-646v281h646v-281z" />
<glyph unicode="." horiz-adv-x="598" d="M508 176q0 -84 -58.5 -144.5t-138.5 -60.5q-84 0 -143 60.5t-59 144.5q0 80 58 139.5t144 59.5q82 0 139.5 -59.5t57.5 -139.5z" />
<glyph unicode="/" horiz-adv-x="854" d="M877 1606l-527 -1866l-319 104l528 1866z" />
<glyph unicode="0" horiz-adv-x="1128" d="M1071 696q0 -111 -15.5 -211t-53 -195t-96 -164t-148.5 -111t-205 -42q-141 0 -242.5 61.5t-155 166t-76 218t-22.5 243.5q0 139 27 258.5t85 225t164.5 167t252.5 61.5q113 0 199.5 -40t140 -105.5t87.5 -156.5t46 -181.5t12 -194.5zM721 664q0 430 -162 430 q-147 0 -147 -412q0 -426 159 -426q150 0 150 408z" />
<glyph unicode="1" horiz-adv-x="770" d="M659 0h-350v942l-200 -119l-113 250l395 291h268v-1364z" />
<glyph unicode="2" horiz-adv-x="919" d="M842 0h-793v213q168 178 306.5 385t138.5 350q0 147 -152 148q-109 0 -231 -62l-70 258q176 82 360 82q221 0 330 -103.5t109 -281.5q0 -96 -32 -198.5t-89 -200.5t-102.5 -161.5t-108.5 -143.5h334v-285z" />
<glyph unicode="3" horiz-adv-x="911" d="M799 1018q0 -203 -172 -318q106 -37 163.5 -134t57.5 -228q0 -258 -183.5 -406.5t-467.5 -148.5q-90 0 -131 10v285q74 -8 110 -8q129 0 216 69.5t87 190.5q0 186 -239 174l-86 -2l-9 250l80 6q92 10 151.5 63t59.5 135q0 66 -37 102t-94 36q-80 0 -194 -41l-72 268 q145 55 319 55q201 0 321 -91t120 -267z" />
<glyph unicode="4" horiz-adv-x="962" d="M289 1405h325l-247 -840h153l60 350h247v-350h121v-280h-121v-285h-323v285h-428l-74 221z" />
<glyph unicode="5" horiz-adv-x="882" d="M424 1098l-16 -271q12 2 32 2q170 0 288 -119.5t118 -340.5q0 -276 -184.5 -429t-483.5 -153q-55 0 -102 8v289q35 -6 82 -6q145 0 233 79t88 218q0 205 -219 205q-76 0 -176 -25l47 797h682v-254h-389z" />
<glyph unicode="6" horiz-adv-x="1153" d="M956 1247q-227 23 -345.5 -47t-157.5 -285q82 45 198 46q190 0 303 -125t113 -356.5t-142.5 -370t-353.5 -138.5q-252 0 -372.5 184.5t-120.5 475.5q0 201 38 359.5t122 285.5t233.5 196.5t353.5 69.5q70 0 127 -4zM563 696q-49 0 -131 -45v-18q0 -377 150 -377 q57 0 87.5 60.5t30.5 158.5q0 221 -137 221z" />
<glyph unicode="7" horiz-adv-x="827" d="M426 1069h-424v283h784l31 -193l-418 -1329h-366z" />
<glyph unicode="8" horiz-adv-x="1083" d="M84 381q0 211 186 403q-166 147 -166 351q0 197 125 307t320 110q184 0 305 -102t121 -282.5t-162 -366.5q186 -141 186 -385q0 -219 -131 -332t-331 -113q-193 0 -323 107.5t-130 302.5zM664 389q0 70 -41 122t-117 105q-82 -119 -82 -215q0 -74 34 -114.5t85 -40.5 q47 0 84 37.5t37 105.5zM444 1165q0 -125 129 -215q68 100 68 195q0 55 -28.5 99t-71.5 44t-70 -32t-27 -91z" />
<glyph unicode="9" horiz-adv-x="1153" d="M188 104q225 -25 344 46t158 286q-82 -45 -196 -45q-190 0 -303 125t-113 356.5t143.5 369.5t351.5 138q252 0 373 -184t121 -475q0 -201 -38 -359.5t-122 -285.5t-233.5 -196.5t-354.5 -69.5q-70 0 -126 4zM582 655q53 0 131 43v21q0 377 -150 377q-57 0 -88 -60.5 t-31 -158.5q1 -222 138 -222z" />
<glyph unicode=":" horiz-adv-x="587" d="M512 176q0 -84 -58.5 -144.5t-138.5 -60.5q-84 0 -143 60.5t-59 144.5q0 80 58 139.5t144 59.5q82 0 139.5 -59.5t57.5 -139.5zM512 950q0 -84 -58.5 -144.5t-138.5 -60.5q-84 0 -143 60.5t-59 144.5q0 80 58 139.5t144 59.5q82 0 139.5 -59.5t57.5 -139.5z" />
<glyph unicode=";" horiz-adv-x="587" d="M260 -420l-194 174q129 141 129 232q0 37 -43 94t-43 123q0 80 56 130t140 50q109 0 168 -80t59 -209q0 -246 -272 -514zM510 950q0 -84 -58.5 -144.5t-138.5 -60.5q-84 0 -143 60.5t-59 144.5q0 80 58 139.5t144 59.5q82 0 139.5 -59.5t57.5 -139.5z" />
<glyph unicode="&#x3c;" horiz-adv-x="833" d="M653 1241l191 -201l-443 -452l433 -443l-177 -219l-686 662z" />
<glyph unicode="=" horiz-adv-x="1071" d="M975 678h-881v280h881v-280zM975 211h-881v281h881v-281z" />
<glyph unicode="&#x3e;" horiz-adv-x="1071" d="M293 1241l676 -653l-684 -662l-172 219l426 443l-439 452z" />
<glyph unicode="?" horiz-adv-x="876" d="M262 498v125q0 111 37 201.5t80 139t80 106.5t37 112q0 86 -93 86q-66 0 -204 -88l-109 241q207 123 391 123q195 0 282 -94t87 -240q0 -96 -38 -181t-83 -137t-83 -130t-38 -162v-102h-346zM637 176q0 -84 -58.5 -144.5t-138.5 -60.5q-84 0 -144 60.5t-60 144.5 q0 80 59 139.5t145 59.5q82 0 139.5 -59.5t57.5 -139.5z" />
<glyph unicode="@" horiz-adv-x="1875" d="M836 -25q-106 0 -181 73t-105 175.5t-30 220.5q0 285 132 452t337 167q170 0 342 -125v-596q0 -113 60 -113q102 0 102 383q0 297 -132 479.5t-382 182.5q-260 0 -429 -196.5t-169 -557.5q0 -338 146.5 -549t418.5 -211q188 0 385 72l76 -252q-227 -76 -481 -76 q-412 0 -637.5 271.5t-225.5 732.5q0 465 254 744.5t648 279.5q365 0 607.5 -238.5t242.5 -638.5q0 -123 -27 -236.5t-82 -216t-157.5 -165t-239.5 -62.5q-59 0 -99.5 9.5t-64 36t-30.5 39t-25 51.5q-109 -136 -254 -136zM1016 293v512q-16 10 -41 10q-127 0 -127 -328 q0 -256 90 -256q49 1 78 62z" />
<glyph unicode="A" horiz-adv-x="1273" d="M891 0l-100 360h-340l-101 -360h-350l416 1522h418l438 -1522h-381zM616 1270l-110 -633h227z" />
<glyph unicode="B" horiz-adv-x="1153" d="M1112 457q0 -133 -44 -226.5t-128 -141.5t-179 -68.5t-220 -20.5h-416v1522h430q287 0 400.5 -108.5t113.5 -297.5q0 -186 -129 -291q172 -120 172 -368zM741 473q0 190 -180 191h-88v-390h92q86 0 131 46.5t45 152.5zM702 1094q0 152 -151 151h-78v-330h72 q157 1 157 179z" />
<glyph unicode="C" horiz-adv-x="1017" d="M967 307l34 -289q-152 -45 -303 -45q-643 0 -643 770q0 135 19.5 250t66.5 219.5t121 178t187.5 117.5t261.5 44q123 0 288 -43l-45 -284q-129 39 -237 39q-154 0 -225.5 -118t-71.5 -366q0 -520 299 -520q129 0 248 47z" />
<glyph unicode="D" horiz-adv-x="1298" d="M1243 770q0 -362 -165 -566t-509 -204h-448v1522h469q653 0 653 -752zM887 756q0 258 -75 370.5t-261 112.5h-82v-956h117q158 0 229.5 112.5t71.5 360.5z" />
<glyph unicode="E" horiz-adv-x="1062" d="M1006 0h-885v1522h856v-283h-508v-317h459v-281h-459v-358h537v-283z" />
<glyph unicode="F" horiz-adv-x="919" d="M940 1239h-471v-403h436v-281h-436v-555h-348v1522h819v-283z" />
<glyph unicode="G" horiz-adv-x="1251" d="M1174 723v-614q-215 -137 -486 -138q-322 0 -473.5 199t-151.5 549q0 379 168 606t517 227q164 0 401 -77l-70 -285q-182 76 -336 76q-166 0 -239.5 -128t-73.5 -382q0 -498 275 -498q74 0 133 35v430h336z" />
<glyph unicode="H" horiz-adv-x="1366" d="M1241 0h-352v649h-412v-649h-352v1522h352v-594h412v594h352v-1522z" />
<glyph unicode="I" horiz-adv-x="602" d="M477 0h-352v1522h352v-1522z" />
<glyph unicode="J" horiz-adv-x="737" d="M627 1522v-904q0 -115 -18.5 -208t-44 -157.5t-76 -115.5t-94.5 -81.5t-119.5 -56.5t-128 -39t-144.5 -32l-47 299q176 45 250 121t74 277v897h348z" />
<glyph unicode="K" horiz-adv-x="1269" d="M1272 1522l-455 -650l486 -872h-449l-264 598l-119 -162v-436h-350v1522h350v-627l346 627h455z" />
<glyph unicode="L" horiz-adv-x="999" d="M981 0h-860v1522h348v-1227h512v-295z" />
<glyph unicode="M" horiz-adv-x="1630" d="M1559 0h-353l-43 846l-289 -846h-163l-297 846l-37 -846h-305l100 1522h309l332 -918l330 918h307z" />
<glyph unicode="N" horiz-adv-x="1372" d="M1253 0h-258l-540 846v-846h-334v1522h258l541 -828v828h333v-1522z" />
<glyph unicode="O" horiz-adv-x="1345" d="M1286 784q0 -127 -17.5 -238.5t-62.5 -219t-114.5 -184t-182 -124t-258.5 -47.5q-592 0 -592 770q0 123 19.5 233.5t65.5 218t116 185.5t180.5 126t247.5 48q166 0 286 -63.5t186.5 -175t96 -242.5t29.5 -287zM924 768q0 248 -54.5 375t-199.5 127q-96 0 -153.5 -70 t-77 -177.5t-19.5 -270.5q0 -248 58.5 -374t195.5 -126q250 0 250 516z" />
<glyph unicode="P" horiz-adv-x="1138" d="M1098 1022q0 -242 -131 -381t-367 -139q-78 0 -131 12v-514h-352v1522h448q252 0 392.5 -127t140.5 -373zM731 997q0 123 -46 182.5t-157 59.5h-59v-446q29 -14 72 -15q106 0 148 53t42 166z" />
<glyph unicode="Q" horiz-adv-x="1347" d="M1286 784q0 -526 -285 -716l225 -85q175 -67 242 -89l197 -63q129 -40 221 -54.5t180 -14.5q94 0 248 17l-33 -260q-156 -14 -247 -15q-72 0 -145.5 7.5t-161.5 27.5l-153 36q-67 15 -171 53l-161 58q-56 19 -178 69l-168 70l-182 79l-173 76q-481 66 -482 761 q0 123 19.5 233.5t65.5 218t116 185.5t180.5 126t247.5 48q166 0 286 -63.5t186.5 -175t96 -242.5t29.5 -287zM924 768q0 248 -54.5 375t-199.5 127q-96 0 -153.5 -70t-77 -177.5t-19.5 -270.5q0 -248 58.5 -374t195.5 -126q250 0 250 516z" />
<glyph unicode="R" horiz-adv-x="1169" d="M121 1522h428q266 0 398 -112t132 -345q0 -301 -205 -422l259 -643h-410l-162 559q-31 -2 -92 -2v-557h-348v1522zM469 1239v-410h11q120 0 175 42q57 44 58 167q0 104 -40 154q-38 47 -114 47h-6h-84z" />
<glyph unicode="S" horiz-adv-x="980" d="M897 1477l-76 -283q-158 68 -268 68q-147 0 -147 -111q0 -59 56 -115.5t135 -111t159 -121t136 -173t56 -237.5q0 -209 -145.5 -313.5t-362.5 -104.5q-229 0 -417 82l86 316q193 -106 323 -107q66 0 106 32t40 87q0 53 -40 104.5t-99.5 93.5t-129 98t-129 113.5 t-99.5 146.5t-40 194q0 201 142.5 309t351.5 108q161 1 362 -75z" />
<glyph unicode="T" horiz-adv-x="1038" d="M1065 1239h-377v-1239h-346v1239h-369v283h1092v-283z" />
<glyph unicode="U" horiz-adv-x="1306" d="M1190 1522v-1026q0 -233 -138.5 -379t-416.5 -146q-274 0 -396 142.5t-122 378.5v1030h346v-961q0 -147 39 -219t157 -72q61 0 100.5 20.5t57 64.5t22.5 88t5 118v961h346z" />
<glyph unicode="V" horiz-adv-x="1253" d="M1278 1522l-537 -1522h-227l-539 1522h381l283 -981l274 981h365z" />
<glyph unicode="W" horiz-adv-x="1683" d="M1677 1522l-264 -1522h-278l-297 913l-291 -913h-279l-264 1522h365l116 -891l242 891h256l250 -891l115 891h329z" />
<glyph unicode="X" horiz-adv-x="1241" d="M827 0l-217 494l-219 -494h-385l379 778l-365 744h426l197 -455l188 455h388l-371 -719l405 -803h-426z" />
<glyph unicode="Y" horiz-adv-x="1136" d="M1190 1522l-442 -1014v-508h-349v489l-450 1033h387l244 -670l249 670h361z" />
<glyph unicode="Z" horiz-adv-x="1032" d="M1008 0h-930l-51 233l530 990h-506v299h907l56 -215l-539 -1008h533v-299z" />
<glyph unicode="[" horiz-adv-x="620" d="M600 -307h-545v2136h545v-256h-256v-1624h256v-256z" />
<glyph unicode="\" horiz-adv-x="647" d="M412 -262l-529 1868l328 106l530 -1868z" />
<glyph unicode="]" horiz-adv-x="618" d="M565 -307h-545v256h252v1624h-252v256h545v-2136z" />
<glyph unicode="^" horiz-adv-x="1089" d="M1159 571h-364l-254 621l-244 -621h-365l486 1045h258z" />
<glyph unicode="_" horiz-adv-x="894" d="M944 -258h-989v231h989v-231z" />
<glyph unicode="`" horiz-adv-x="227" d="M-152 1583l279 152l213 -398l-209 -90z" />
<glyph unicode="a" horiz-adv-x="966" d="M895 0h-279l-28 111q-4 -4 -29 -22l-33 -23q-8 -6 -31.5 -21.5t-36.5 -21.5l-37 -18q-24 -11 -43.5 -15t-45 -8.5t-49.5 -4.5q-117 0 -176.5 91.5t-59.5 226.5q0 307 475 344v137q0 113 -110 113q-94 0 -256 -66l-68 250q217 76 389 76q215 0 301 -100.5t86 -272.5v-411 q0 -129 31 -365zM524 266v187q-55 -6 -86.5 -12.5t-60.5 -31t-29 -67.5q0 -57 23.5 -90t60.5 -33q35 0 92 47z" />
<glyph unicode="b" horiz-adv-x="1101" d="M1053 608q0 -291 -122 -464t-382 -173q-248 0 -445 127v1567h349v-573q92 57 229 57q371 0 371 -541zM692 580q0 158 -25.5 221t-97.5 63q-74 0 -116 -41v-538q41 -29 92 -29q80 0 113.5 82t33.5 242z" />
<glyph unicode="c" horiz-adv-x="833" d="M754 303l61 -254q-129 -72 -323 -72q-440 0 -441 570q0 311 126 452.5t366 141.5q147 0 266 -43l-59 -277q-92 49 -183 49q-78 0 -119.5 -63.5t-41.5 -224.5q0 -164 44 -249t125 -85q73 0 179 55z" />
<glyph unicode="d" horiz-adv-x="1103" d="M1001 1665v-1618q-289 -76 -458 -76q-489 0 -490 572q0 279 120 442.5t364 163.5q53 0 116 -6v522h348zM653 262v582q-45 20 -92 20q-82 0 -114.5 -73.5t-32.5 -225.5q0 -319 137 -319q36 0 102 16z" />
<glyph unicode="e" horiz-adv-x="940" d="M887 485h-527q14 -141 59.5 -195t137.5 -54q88 0 252 75l76 -248q-188 -92 -371 -92q-250 0 -353.5 157t-103.5 431q0 590 437 590q215 0 311 -135t96 -350q0 -95 -14 -179zM469 918q-55 0 -83 -53.5t-32 -174.5h234v17q0 101 -24 153q-25 58 -95 58z" />
<glyph unicode="f" horiz-adv-x="671" d="M866 1647l-65 -246q-84 37 -187 37q-76 0 -101.5 -42t-25.5 -151v-125h205v-252h-205v-868h-348v868h-116v252h116v125q0 236 98.5 343.5t319.5 107.5q162 0 309 -49z" />
<glyph unicode="g" horiz-adv-x="931" d="M446 1149q72 0 148 -21q51 76 81 115t81 83t108 65l121 -234q-152 -45 -219 -147q76 -102 76 -260q0 -199 -107.5 -293.5t-283.5 -94.5h-33q-8 -25 -8 -57q0 -37 38.5 -65.5t97 -46t127 -48t127 -68.5t97.5 -112t39 -172q0 -104 -42 -180t-113.5 -113t-149.5 -53 t-168 -16q-436 0 -436 315q0 74 31.5 146.5t59 106.5t72.5 83q-49 61 -49 160q0 96 64 186q-135 98 -135 326q0 205 101 300t275 95zM621 -236q0 35 -12.5 60.5t-47.5 48.5t-53.5 33t-76.5 32.5l-73 28.5q-57 -100 -57 -151q0 -78 45 -119t113 -41q162 -1 162 108zM567 752 q0 168 -114 168q-109 0 -109 -162q0 -168 113 -168q110 0 110 162z" />
<glyph unicode="h" d="M1020 0h-348v719q0 123 -76 123q-63 0 -141 -72v-770h-349v1667h349l-19 -633q68 45 160 80t160 35q121 0 192.5 -88t71.5 -279v-782z" />
<glyph unicode="i" horiz-adv-x="565" d="M459 0h-350v1120h350v-1120zM477 1479q0 -80 -57.5 -136.5t-139 -56.5t-137 56.5t-55.5 136.5t56.5 137t136 57t138 -58t58.5 -136z" />
<glyph unicode="j" horiz-adv-x="565" d="M109 1120h350v-1030q0 -307 -110.5 -442t-432.5 -201l-70 283q106 31 155.5 58.5t78.5 92t29 182.5v1057zM473 1479q0 -80 -57.5 -136.5t-139 -56.5t-137 56.5t-55.5 136.5t56.5 137t136 57t138 -58t58.5 -136z" />
<glyph unicode="k" horiz-adv-x="1067" d="M1083 1120l-370 -487l379 -633h-408l-180 360l-68 -88v-272h-332v1665h349v-721l-17 -246l236 422h411z" />
<glyph unicode="l" horiz-adv-x="565" d="M459 0h-353v1665h353v-1665z" />
<glyph unicode="m" horiz-adv-x="1677" d="M1014 0h-348v729q0 63 -16.5 88t-55.5 25q-63 0 -141 -72v-770h-349v1120h308l18 -100q184 129 324 129q170 0 225 -131q186 131 338 131q131 0 195.5 -77t64.5 -267v-805h-348v731q0 61 -17.5 86t-56.5 25q-57 0 -141 -74v-768z" />
<glyph unicode="n" d="M1018 0h-348v729q0 61 -17.5 87t-56.5 26q-66 0 -143 -72v-770h-349v1120h308l18 -100q184 129 326 129q131 0 196.5 -77t65.5 -267v-805z" />
<glyph unicode="o" horiz-adv-x="1071" d="M53 551q0 276 119 437t377 161q469 0 469 -571q0 -279 -121 -443t-371 -164q-244 0 -358.5 155t-114.5 425zM403 573q0 -176 33 -254.5t103 -78.5q129 0 129 325q0 164 -31 241t-100.5 77t-101.5 -71t-32 -239z" />
<glyph unicode="p" horiz-adv-x="1103" d="M102 -543v1618q289 76 459 76q489 0 490 -571q0 -279 -120 -443t-364 -164q-55 0 -116 7v-523h-349zM451 860v-581q45 -20 92 -21q82 0 114.5 74t32.5 225q0 319 -137 320q-36 -1 -102 -17z" />
<glyph unicode="q" horiz-adv-x="1103" d="M53 514q0 291 122 464t382 173q248 0 444 -127v-1567h-348v574q-92 -57 -229 -58q-371 0 -371 541zM414 543q0 -158 25.5 -221.5t97.5 -63.5q74 0 116 41v539q-41 29 -92 28q-80 0 -113.5 -81.5t-33.5 -241.5z" />
<glyph unicode="r" horiz-adv-x="833" d="M811 1135l-16 -314q-24 4 -48 4q-189 0 -301 -252v-573h-340v1120h340v-172q84 117 165 160q59 31 137 31q30 1 63 -4z" />
<glyph unicode="s" horiz-adv-x="815" d="M455 1153q143 0 290 -45l-53 -266q-106 47 -198 47q-78 0 -78 -66q0 -41 36.5 -75.5t91 -68.5t108 -77t90 -117.5t36.5 -173.5q0 -172 -107.5 -256t-281.5 -84q-180 0 -352 60l74 278q139 -74 231 -73q80 0 80 67q0 33 -26.5 63.5t-67.5 55t-87 60.5t-87 75t-68 102.5 t-27 141.5q0 168 113 260t283 92z" />
<glyph unicode="t" horiz-adv-x="710" d="M668 293l45 -287q-106 -33 -242 -33q-188 0 -268 83t-80 272v540h-109v252h109v344l348 82v-426h203v-252h-203v-487q0 -109 80 -109q39 1 117 21z" />
<glyph unicode="u" d="M102 1120h349v-729q0 -63 17 -87.5t56 -24.5q66 0 144 71v770h348v-1120h-307l-19 98q-184 -127 -325 -127q-131 0 -197 78t-66 266v805z" />
<glyph unicode="v" horiz-adv-x="993" d="M1030 1120l-393 -1120h-266l-408 1120h389l166 -610l146 610h366z" />
<glyph unicode="w" horiz-adv-x="1380" d="M1393 1120l-256 -1120h-234l-203 666l-204 -666h-236l-270 1120h358l88 -614l158 614h233l164 -610l68 610h334z" />
<glyph unicode="x" horiz-adv-x="1062" d="M428 1120l147 -280l103 280h360l-266 -579l-37 -2l285 -539h-397l-150 283l-104 -283h-361l266 580h41l-284 540h397z" />
<glyph unicode="y" horiz-adv-x="987" d="M1030 1120l-323 -1124q-39 -137 -95.5 -237.5t-129 -162t-137 -95t-155.5 -64.5l-124 278q244 109 307 316l22 73h-121l-299 1016h371l170 -760l154 760h360z" />
<glyph unicode="z" horiz-adv-x="790" d="M760 0h-717l-12 211l336 649h-318v260h684l29 -209l-350 -649h348v-262z" />
<glyph unicode="{" horiz-adv-x="565" d="M563 -113l-51 -209q-63 12 -94 21.5t-87.5 36t-84 62.5t-51 102.5t-23.5 154.5v283q0 86 -7 141.5t-25.5 103.5t-57.5 72.5t-100 28.5v199q92 2 141 67.5t49 175.5v340q0 92 24.5 161t55.5 103.5t85 60.5t84 32t81 14l37 -209q-51 -8 -72 -48t-21 -132v-348 q0 -139 -52 -218t-109 -94q70 -35 115.5 -120.5t45.5 -216.5v-390q0 -139 117 -174z" />
<glyph unicode="|" horiz-adv-x="589" d="M461 -236h-332v1901h332v-1901z" />
<glyph unicode="}" horiz-adv-x="565" d="M2 1630l55 209q63 -14 92 -21.5t86.5 -35t85 -62t51 -101.5t23.5 -155v-282q0 -176 36 -257t153 -91v-199q-90 -2 -139.5 -67.5t-49.5 -176.5v-338q0 -92 -24.5 -160.5t-55 -103.5t-85 -60.5t-84 -31.5t-80.5 -14l-37 208q51 10 72.5 49.5t21.5 131.5v348q0 139 52 218 t106 91q-66 37 -112 123t-46 217v387q0 139 -121 174z" />
<glyph unicode="~" horiz-adv-x="999" d="M889 791l96 -230q-45 -55 -132 -104t-185 -49q-86 0 -194.5 67.5t-166.5 67.5q-115 0 -203 -84l-86 223q158 147 312 147q88 0 197.5 -68.5t160.5 -68.5q90 1 201 99z" />
<glyph unicode="&#xa1;" horiz-adv-x="505" d="M57 -399l19 999h330l20 -999h-369zM453 950q0 -84 -58.5 -144.5t-138.5 -60.5q-84 0 -143.5 60.5t-59.5 144.5q0 80 58.5 139.5t144.5 59.5q82 0 139.5 -59.5t57.5 -139.5z" />
<glyph unicode="&#xa2;" horiz-adv-x="884" d="M768 317l76 -274q-90 -45 -174 -61v-242h-293v260q-156 55 -237 199.5t-81 355.5q0 215 84 360.5t234 200.5v227h293v-204q80 -14 172 -60l-76 -284q-100 70 -188 69q-152 0 -152 -280q0 -154 42 -241t124 -87q94 0 176 61z" />
<glyph unicode="&#xa3;" horiz-adv-x="1054" d="M797 668h-232v-86q0 -223 -47 -310h488v-272h-893l-31 211q76 63 111.5 152.5t35.5 238.5v66h-155v264h155v119q0 211 134.5 353t322.5 142q166 0 346 -65l-74 -256q-117 55 -210 55q-88 0 -135.5 -66.5t-47.5 -173.5v-108h232v-264z" />
<glyph unicode="&#xa4;" horiz-adv-x="1101" d="M864 815h-317v-100h317v-248h-289q51 -211 197 -211q88 0 229 68l86 -279q-190 -74 -348 -74q-227 0 -361 132.5t-179 363.5h-144v248h119v24q0 51 2 76h-121v250h154q55 225 190.5 356t362.5 131q141 0 309 -69l-88 -285q-121 68 -195 68q-76 0 -130 -39t-85 -162h291 v-250z" />
<glyph unicode="&#xa5;" horiz-adv-x="1230" d="M1165 1520l-237 -516l10 6h205v-248h-326l-47 -103h373v-247h-355v-416h-350v416h-354v247h377l-47 103h-330v248h209l10 -9l-237 519h360l190 -609l183 609h366z" />
<glyph unicode="&#xa6;" horiz-adv-x="589" d="M129 586h332v-824h-332v824zM461 897h-332v770h332v-770z" />
<glyph unicode="&#xa7;" horiz-adv-x="1017" d="M956 477q0 -172 -168 -282q82 -117 82 -244q0 -162 -113.5 -247t-299.5 -85q-188 0 -334 59l84 240q102 -49 215 -49q125 0 125 84q0 55 -49 113.5t-119 115t-139.5 120t-118.5 150.5t-49 183q0 180 184 291q-100 131 -100 278q0 160 107.5 248t307.5 88q139 0 306 -53 l-82 -236q-82 39 -209 39q-131 0 -131 -88q0 -55 51 -118.5t125 -125.5l148 -130q75 -69 126 -161t51 -190zM647 483q0 18 -5 38t-20 40l-26 35q-10 14 -38 40l-39 36l-48 42q-37 32 -47 40q-49 -76 -49 -123q0 -14 3 -28.5t12 -30.5l17 -26q7 -11 23 -28l26 -25 q9 -9 32.5 -28t32.5 -27t37 -28.5t38 -28.5q51 55 51 102z" />
<glyph unicode="&#xa8;" horiz-adv-x="749" d="M328 1454q0 -76 -52.5 -127t-123.5 -51q-78 0 -129.5 51t-51.5 127q0 78 51.5 129t129.5 51q72 0 124 -54t52 -126zM782 1454q0 -76 -53 -127t-131 -51q-74 0 -123 51t-49 127q0 74 49 127t123 53q78 0 131 -54t53 -126z" />
<glyph unicode="&#xa9;" horiz-adv-x="2236" d="M2146 614q0 -328 -126 -596t-362.5 -426.5t-539.5 -158.5q-457 0 -742.5 333.5t-285.5 847.5q0 326 127 594.5t363.5 426t537.5 157.5q303 0 539.5 -158.5t362.5 -426t126 -593.5zM1843 612q0 381 -202.5 640t-522 259t-522.5 -259t-203 -640q0 -393 202 -646t523.5 -253 t523 259t201.5 640zM1432 340l98 -262q-66 -35 -103.5 -52.5t-119.5 -37t-174 -19.5q-242 0 -395.5 172t-153.5 484q0 276 165.5 444t383.5 168q176 0 385 -109l-97 -270q-109 57 -155.5 75.5t-104.5 18.5q-86 0 -154.5 -76.5t-68.5 -248.5q0 -190 72.5 -280.5t144.5 -90.5 q70 0 122.5 15.5t154.5 68.5z" />
<glyph unicode="&#xaa;" horiz-adv-x="698" d="M659 356h-639v252h639v-252zM637 721h-244l-14 74q-4 -4 -17 -15l-17 -14l-17 -13q-12 -9 -17.5 -12.5t-16.5 -11.5t-19 -11l-17 -7q-10 -4 -18.5 -6.5t-18.5 -4.5t-20 -2q-98 0 -148.5 70t-50.5 174q0 252 338 277v41q0 33 -17.5 54t-43.5 21q-76 0 -199 -53l-53 207 q186 66 315 65q135 0 209 -84t74 -213v-344q0 -77 12 -192zM340 961v100q-27 -2 -56.5 -26.5t-29.5 -63.5q0 -55 20.5 -55t65.5 45z" />
<glyph unicode="&#xab;" horiz-adv-x="1083" d="M403 565l207 -426l-239 -63l-316 489l316 490l233 -74zM1010 195l-240 -66l-283 436l301 439l220 -72l-170 -363z" />
<glyph unicode="&#xac;" horiz-adv-x="1003" d="M737 541h-745v278h1020v-641h-273z" />
<glyph unicode="&#xad;" horiz-adv-x="768" d="M711 516h-645v281h645v-281z" />
<glyph unicode="&#xae;" horiz-adv-x="2236" d="M2146 614q0 -328 -126 -596t-362.5 -426.5t-539.5 -158.5q-457 0 -742.5 333.5t-285.5 847.5q0 326 127 594.5t363.5 426t537.5 157.5q303 0 539.5 -158.5t362.5 -426t126 -593.5zM1843 612q0 381 -202.5 640t-522 259t-522.5 -259t-203 -640q0 -393 202 -646t523.5 -253 t523 259t201.5 640zM1538 852q0 -211 -162 -324l193 -534h-324l-123 452q-41 -2 -90 5v-457h-313v1235h352q244 0 355.5 -104.5t111.5 -272.5zM1231 834q0 80 -36 117.5t-122 37.5h-41v-317q80 -8 139.5 30t59.5 132z" />
<glyph unicode="&#xaf;" horiz-adv-x="559" d="M621 1284h-676v232h676v-232z" />
<glyph unicode="&#xb0;" horiz-adv-x="796" d="M780 1339q0 -166 -108.5 -279.5t-270.5 -113.5q-164 0 -269 111.5t-105 281.5q0 164 108.5 278t265.5 114q162 0 270.5 -114t108.5 -278zM545 1339q0 82 -40 132.5t-104 50.5q-59 0 -98 -50.5t-39 -132.5t39 -134t98 -52q63 0 103.5 52t40.5 134z" />
<glyph unicode="&#xb1;" horiz-adv-x="1071" d="M975 719h-283v-340h-315v340h-283v270h283v357h315v-357h283v-270zM975 0h-881v281h881v-281z" />
<glyph unicode="&#xb2;" horiz-adv-x="647" d="M608 645h-551l-24 143q279 322 278 457q0 72 -43 72q-55 0 -166 -53l-59 211q154 68 272 67q276 0 277 -272q0 -193 -195 -416h211v-209z" />
<glyph unicode="&#xb3;" horiz-adv-x="614" d="M588 934q0 -143 -98.5 -222t-260.5 -79q-104 0 -206 26l59 220q100 -29 133 -29q84 0 84 72q0 82 -109 82h-92l-6 182h58q49 2 84.5 26.5t35.5 69.5q0 51 -49 51q-41 0 -129 -47l-67 193q133 74 276 73q119 0 191.5 -53t72.5 -162q0 -117 -92 -192q115 -53 115 -211z" />
<glyph unicode="&#xb4;" horiz-adv-x="227" d="M-113 1337l240 396l240 -158l-297 -328z" />
<glyph unicode="&#xb5;" horiz-adv-x="1130" d="M102 -545v1665h351v-758q51 -106 110 -106q49 0 83 53t34 150v661h350v-743q0 -213 31 -377h-305l-15 61q-63 -90 -141 -90q-84 0 -147 43v-559h-351z" />
<glyph unicode="&#x3bc;" horiz-adv-x="1130" d="M102 -545v1665h351v-758q51 -106 110 -106q49 0 83 53t34 150v661h350v-743q0 -213 31 -377h-305l-15 61q-63 -90 -141 -90q-84 0 -147 43v-559h-351z" />
<glyph unicode="&#xb6;" horiz-adv-x="1187" d="M756 -209v1610h-170q-135 0 -218 -53.5t-83 -165.5q0 -133 91 -188.5t263 -55.5v-1147h-326v885q-182 35 -277 171t-95 308q0 530 616 531h528v-1895h-329z" />
<glyph unicode="&#xb7;" horiz-adv-x="499" d="M459 739q0 -84 -58.5 -144t-138.5 -60q-84 0 -143.5 60t-59.5 144q0 80 58.5 139.5t144.5 59.5q82 0 139.5 -59.5t57.5 -139.5z" />
<glyph unicode="&#xb8;" horiz-adv-x="520" d="M350 10l-16 -131q162 -59 162 -215q0 -119 -85 -173t-210 -54q-88 0 -172 22l45 168q70 -18 104 -18q94 0 94 63q0 72 -133 82l25 258z" />
<glyph unicode="&#xb9;" horiz-adv-x="620" d="M537 649h-277l8 596l-188 -92l-70 186l312 207h215v-897z" />
<glyph unicode="&#xba;" horiz-adv-x="811" d="M776 356h-725v252h725v-252zM14 1135q0 53 16.5 115.5t53.5 135t116 120.5t187 48q92 0 161.5 -32.5t106.5 -77.5t58.5 -107.5t28 -107.5t6.5 -90q0 -66 -17.5 -134.5t-56.5 -139t-115 -114.5t-180 -44q-109 0 -185.5 46t-112.5 118.5t-51.5 137.5t-15.5 126zM317 1141 q0 -68 16.5 -129.5t51.5 -61.5q63 0 64 183q0 59 -18.5 119.5t-49.5 60.5q-64 0 -64 -172z" />
<glyph unicode="&#xbb;" horiz-adv-x="1091" d="M477 987l240 68l319 -490l-319 -489l-232 74l199 415zM76 936l239 63l285 -436l-297 -434l-225 74l172 358z" />
<glyph unicode="&#xbc;" horiz-adv-x="1652" d="M532 649h-276l10 596l-190 -92l-70 186l311 207h215v-897zM1182 901h266l-176 -512h82l67 232h146v-232h78v-211h-78v-178h-271v178h-229l-72 184zM1464 1386l-960 -1376l-205 193l954 1380z" />
<glyph unicode="&#xbd;" horiz-adv-x="1716" d="M1438 1386l-961 -1376l-205 193l955 1380zM1673 0h-551l-24 141q279 322 278 459q0 72 -43 72q-55 0 -166 -54l-59 211q154 68 272 68q276 0 277 -272q0 -193 -195 -416h211v-209zM532 649h-276l10 596l-190 -92l-70 186l311 207h215v-897z" />
<glyph unicode="&#xbe;" horiz-adv-x="1622" d="M1413 1386l-960 -1376l-205 193l954 1380zM588 934q0 -143 -98.5 -222t-260.5 -79q-104 0 -206 26l59 220q100 -29 133 -29q84 0 84 72q0 82 -109 82h-92l-6 182h58q49 2 84.5 26.5t35.5 69.5q0 51 -49 51q-41 0 -129 -47l-67 193q133 74 276 73q119 0 191.5 -53 t72.5 -162q0 -117 -92 -192q115 -53 115 -211zM1149 901h266l-176 -512h82l70 232h143l2 -232h76v-211h-76v-178h-270v178h-232l-69 184z" />
<glyph unicode="&#xbf;" horiz-adv-x="876" d="M678 623v-125q0 -111 -37 -202t-80 -139t-80 -106.5t-37 -111.5q0 -86 93 -86q66 0 204 88l109 -242q-207 -123 -391 -123q-195 0 -282 94t-87 240q0 96 38 181t83 137.5t83 130t38 161.5v103h346zM303 944q0 84 58.5 144.5t138.5 60.5q84 0 144.5 -60.5t60.5 -144.5 q0 -80 -59.5 -139.5t-145.5 -59.5q-82 0 -139.5 59.5t-57.5 139.5z" />
<glyph unicode="&#xc0;" horiz-adv-x="1271" d="M889 0l-101 360h-339l-101 -360h-350l416 1522h417l439 -1522h-381zM338 1960l276 151l215 -397l-211 -90zM614 1270l-110 -633h227z" />
<glyph unicode="&#xc1;" horiz-adv-x="1271" d="M889 0l-101 360h-339l-101 -360h-350l416 1522h417l439 -1522h-381zM430 1714l238 395l243 -157l-299 -328zM614 1270l-110 -633h227z" />
<glyph unicode="&#xc2;" horiz-adv-x="1271" d="M889 0l-101 360h-339l-101 -360h-350l416 1522h417l439 -1522h-381zM618 2075l381 -334l-170 -131l-208 162l-209 -162l-162 116zM614 1270l-110 -633h227z" />
<glyph unicode="&#xc3;" horiz-adv-x="1271" d="M889 0l-101 360h-339l-101 -360h-350l416 1522h417l439 -1522h-381zM862 1913l127 -131q-129 -160 -270 -160q-59 0 -116.5 27.5t-88.5 27.5q-47 0 -139 -65l-115 153q135 135 266 136q49 0 108.5 -27t96.5 -27q53 0 131 66zM614 1270l-110 -633h227z" />
<glyph unicode="&#xc4;" horiz-adv-x="1271" d="M889 0l-101 360h-339l-101 -360h-350l416 1522h417l439 -1522h-381zM1057 1823q0 -78 -58.5 -132.5t-144.5 -54.5q-78 0 -133 54.5t-55 132.5q0 76 54 132t134 56q84 0 143.5 -56t59.5 -132zM563 1823q0 -80 -57 -133.5t-135 -53.5q-84 0 -140.5 54.5t-56.5 132.5 q0 80 58.5 134t138.5 54q82 0 137 -56t55 -132zM614 1270l-110 -633h227z" />
<glyph unicode="&#xc5;" horiz-adv-x="1271" d="M897 1620q0 -88 -49 -160l422 -1460h-381l-101 360h-339l-101 -360h-350l395 1452q-51 74 -51 168q0 119 82 204t194 85q115 0 197 -85t82 -204zM614 1270l-110 -633h227zM684 1620q0 100 -65.5 100t-65.5 -100q0 -98 65 -98h7q59 6 59 98z" />
<glyph unicode="&#xc6;" horiz-adv-x="1589" d="M1532 0h-676l-37 420h-350l-184 -420h-412l789 1522h841v-283h-459l33 -311h367v-281h-340l41 -364h387v-283zM803 678l-49 549l-172 -549h221z" />
<glyph unicode="&#xc7;" horiz-adv-x="1017" d="M967 307l34 -289q-141 -39 -272 -45l-10 -94q162 -59 162 -215q0 -119 -85 -173t-210 -54q-88 0 -172 22l45 168q70 -18 104 -18q94 0 94 63q0 72 -133 82l23 234q-492 84 -492 755q0 135 19.5 250t66.5 219.5t121 178t187.5 117.5t261.5 44q123 0 288 -43l-45 -284 q-129 39 -237 39q-154 0 -225.5 -118t-71.5 -366q0 -520 299 -520q129 0 248 47z" />
<glyph unicode="&#xc8;" horiz-adv-x="1062" d="M1006 0h-885v1522h856v-283h-508v-317h459v-281h-459v-358h537v-283zM272 1960l277 151l215 -397l-211 -90z" />
<glyph unicode="&#xc9;" horiz-adv-x="1062" d="M1006 0h-885v1522h856v-283h-508v-317h459v-281h-459v-358h537v-283zM365 1714l237 395l244 -157l-299 -328z" />
<glyph unicode="&#xca;" horiz-adv-x="1062" d="M1006 0h-885v1522h856v-283h-508v-317h459v-281h-459v-358h537v-283zM553 2075l381 -334l-170 -131l-209 162l-209 -162l-162 116z" />
<glyph unicode="&#xcb;" horiz-adv-x="1062" d="M1006 0h-885v1522h856v-283h-508v-317h459v-281h-459v-358h537v-283zM498 1823q0 -80 -57.5 -133.5t-135.5 -53.5q-84 0 -140 54.5t-56 132.5q0 80 58 134t138 54q82 0 137.5 -56t55.5 -132zM991 1823q0 -78 -58.5 -132.5t-144.5 -54.5q-78 0 -133 54.5t-55 132.5 q0 76 54.5 132t133.5 56q84 0 143.5 -56t59.5 -132z" />
<glyph unicode="&#xcc;" horiz-adv-x="602" d="M477 0h-352v1522h352v-1522zM29 1960l276 151l215 -397l-211 -90z" />
<glyph unicode="&#xcd;" horiz-adv-x="602" d="M477 0h-352v1522h352v-1522zM119 1714l237 395l244 -157l-299 -328z" />
<glyph unicode="&#xce;" horiz-adv-x="602" d="M477 0h-352v1522h352v-1522zM309 2075l381 -334l-170 -131l-209 162l-209 -162l-161 116z" />
<glyph unicode="&#xcf;" horiz-adv-x="602" d="M477 0h-352v1522h352v-1522zM254 1823q0 -80 -57.5 -133.5t-135.5 -53.5q-84 0 -140 54.5t-56 132.5q0 80 58.5 134t137.5 54q82 0 137.5 -56t55.5 -132zM748 1823q0 -78 -58.5 -132.5t-144.5 -54.5q-78 0 -133.5 54.5t-55.5 132.5q0 76 54.5 132t134.5 56 q84 0 143.5 -56t59.5 -132z" />
<glyph unicode="&#xd0;" horiz-adv-x="1298" d="M1243 770q0 -362 -165 -566t-509 -204h-448v1522h469q653 0 653 -752zM887 756q0 258 -75 370.5t-261 112.5h-82v-956h117q158 0 229.5 112.5t71.5 360.5zM918 1683h-676v232h676v-232z" />
<glyph unicode="&#xd1;" horiz-adv-x="1372" d="M1253 0h-258l-540 846v-846h-334v1522h258l541 -828v828h333v-1522zM936 1913l127 -131q-129 -160 -270 -160q-59 0 -117 27.5t-88 27.5q-47 0 -139 -65l-115 153q135 135 266 136q49 0 108.5 -27t96.5 -27q53 0 131 66z" />
<glyph unicode="&#xd2;" horiz-adv-x="1345" d="M1286 784q0 -127 -17.5 -238.5t-62.5 -219t-114.5 -184t-182 -124t-258.5 -47.5q-592 0 -592 770q0 123 19.5 233.5t65.5 218t116 185.5t180.5 126t247.5 48q166 0 286 -63.5t186.5 -175t96 -242.5t29.5 -287zM924 768q0 248 -54.5 375t-199.5 127q-96 0 -153.5 -70 t-77 -177.5t-19.5 -270.5q0 -248 58.5 -374t195.5 -126q250 0 250 516zM399 1960l277 151l215 -397l-211 -90z" />
<glyph unicode="&#xd3;" horiz-adv-x="1345" d="M1286 784q0 -127 -17.5 -238.5t-62.5 -219t-114.5 -184t-182 -124t-258.5 -47.5q-592 0 -592 770q0 123 19.5 233.5t65.5 218t116 185.5t180.5 126t247.5 48q166 0 286 -63.5t186.5 -175t96 -242.5t29.5 -287zM924 768q0 248 -54.5 375t-199.5 127q-96 0 -153.5 -70 t-77 -177.5t-19.5 -270.5q0 -248 58.5 -374t195.5 -126q250 0 250 516zM492 1714l237 395l244 -157l-299 -328z" />
<glyph unicode="&#xd4;" horiz-adv-x="1345" d="M1286 784q0 -127 -17.5 -238.5t-62.5 -219t-114.5 -184t-182 -124t-258.5 -47.5q-592 0 -592 770q0 123 19.5 233.5t65.5 218t116 185.5t180.5 126t247.5 48q166 0 286 -63.5t186.5 -175t96 -242.5t29.5 -287zM924 768q0 248 -54.5 375t-199.5 127q-96 0 -153.5 -70 t-77 -177.5t-19.5 -270.5q0 -248 58.5 -374t195.5 -126q250 0 250 516zM682 2075l381 -334l-170 -131l-209 162l-209 -162l-162 116z" />
<glyph unicode="&#xd5;" horiz-adv-x="1345" d="M1286 784q0 -127 -17.5 -238.5t-62.5 -219t-114.5 -184t-182 -124t-258.5 -47.5q-592 0 -592 770q0 123 19.5 233.5t65.5 218t116 185.5t180.5 126t247.5 48q166 0 286 -63.5t186.5 -175t96 -242.5t29.5 -287zM924 768q0 248 -54.5 375t-199.5 127q-96 0 -153.5 -70 t-77 -177.5t-19.5 -270.5q0 -248 58.5 -374t195.5 -126q250 0 250 516zM924 1913l127 -131q-129 -160 -271 -160q-59 0 -116.5 27.5t-88.5 27.5q-47 0 -139 -65l-114 153q135 135 266 136q49 0 108.5 -27t96.5 -27q53 0 131 66z" />
<glyph unicode="&#xd6;" horiz-adv-x="1345" d="M1286 784q0 -127 -17.5 -238.5t-62.5 -219t-114.5 -184t-182 -124t-258.5 -47.5q-592 0 -592 770q0 123 19.5 233.5t65.5 218t116 185.5t180.5 126t247.5 48q166 0 286 -63.5t186.5 -175t96 -242.5t29.5 -287zM924 768q0 248 -54.5 375t-199.5 127q-96 0 -153.5 -70 t-77 -177.5t-19.5 -270.5q0 -248 58.5 -374t195.5 -126q250 0 250 516zM625 1823q0 -80 -57.5 -133.5t-135.5 -53.5q-84 0 -140 54.5t-56 132.5q0 80 58 134t138 54q82 0 137.5 -56t55.5 -132zM1118 1823q0 -78 -58.5 -132.5t-144.5 -54.5q-78 0 -133 54.5t-55 132.5 q0 76 54.5 132t133.5 56q84 0 143.5 -56t59.5 -132z" />
<glyph unicode="&#xd7;" horiz-adv-x="1069" d="M1024 950l-289 -348l291 -348l-203 -205l-288 350l-289 -350l-201 205l287 348l-289 352l201 205l291 -354l288 352z" />
<glyph unicode="&#xd8;" horiz-adv-x="1347" d="M1286 784q0 -127 -17.5 -238.5t-62.5 -219t-114.5 -184t-182 -124t-258.5 -47.5q-231 0 -368 115l-127 -145l-209 223l164 184q-51 162 -52 393q0 123 19.5 233.5t65.5 218t116 185.5t180.5 126t247.5 48q231 0 377 -129l139 158l205 -225l-176 -199q53 -162 53 -373z M420 752v-76l436 491q-61 102 -186 103q-96 0 -153.5 -70t-77 -177t-19.5 -271zM924 768v63l-428 -485q59 -94 178 -94q250 0 250 516z" />
<glyph unicode="&#xd9;" horiz-adv-x="1306" d="M1190 1522v-1026q0 -233 -138.5 -379t-416.5 -146q-274 0 -396 142.5t-122 378.5v1030h346v-961q0 -147 39 -219t157 -72q61 0 100.5 20.5t57 64.5t22.5 88t5 118v961h346zM387 1960l277 151l215 -397l-211 -90z" />
<glyph unicode="&#xda;" horiz-adv-x="1306" d="M1190 1522v-1026q0 -233 -138.5 -379t-416.5 -146q-274 0 -396 142.5t-122 378.5v1030h346v-961q0 -147 39 -219t157 -72q61 0 100.5 20.5t57 64.5t22.5 88t5 118v961h346zM479 1714l238 395l244 -157l-299 -328z" />
<glyph unicode="&#xdb;" horiz-adv-x="1306" d="M1190 1522v-1026q0 -233 -138.5 -379t-416.5 -146q-274 0 -396 142.5t-122 378.5v1030h346v-961q0 -147 39 -219t157 -72q61 0 100.5 20.5t57 64.5t22.5 88t5 118v961h346zM668 2075l381 -334l-170 -131l-209 162l-209 -162l-162 116z" />
<glyph unicode="&#xdc;" horiz-adv-x="1306" d="M1190 1522v-1026q0 -233 -138.5 -379t-416.5 -146q-274 0 -396 142.5t-122 378.5v1030h346v-961q0 -147 39 -219t157 -72q61 0 100.5 20.5t57 64.5t22.5 88t5 118v961h346zM612 1823q0 -80 -57 -133.5t-135 -53.5q-84 0 -140.5 54.5t-56.5 132.5q0 80 58.5 134t138.5 54 q82 0 137 -56t55 -132zM1106 1823q0 -78 -58.5 -132.5t-144.5 -54.5q-78 0 -133 54.5t-55 132.5q0 76 54 132t134 56q84 0 143.5 -56t59.5 -132z" />
<glyph unicode="&#xdd;" horiz-adv-x="1136" d="M1190 1522l-442 -1014v-508h-349v489l-450 1033h387l244 -670l249 670h361zM393 1714l238 395l243 -157l-299 -328z" />
<glyph unicode="&#xde;" horiz-adv-x="1138" d="M131 1522h350v-265h70q156 0 269.5 -52t168.5 -135t79 -163t24 -159q0 -82 -26 -164t-81 -160t-157.5 -126t-237.5 -48q-61 0 -109 8v-258h-350v1522zM721 748q0 39 -5 68.5t-22.5 69.5t-63.5 62.5t-116 22.5h-33v-432q39 -10 97 -11q76 0 109.5 65t33.5 155z" />
<glyph unicode="&#xdf;" horiz-adv-x="1163" d="M753.5 244q57.5 0 57.5 82q0 49 -40 102t-87 97t-87 125t-40 177q0 102 41 184.5t81 145t40 121.5t-28.5 103t-84.5 44q-76 0 -113.5 -79.5t-37.5 -212.5v-1133h-351v1133q0 260 127 411.5t375 151.5q215 0 339 -106.5t124 -270.5q0 -113 -40 -199t-80 -148.5t-40 -117.5 q0 -45 26 -86t63.5 -80t74.5 -84t62.5 -116.5t25.5 -161.5q0 -104 -38 -179t-100 -112t-122.5 -52.5t-124.5 -15.5q-156 0 -284 70l83 280q121 -73 178.5 -73z" />
<glyph unicode="&#xe0;" horiz-adv-x="968" d="M895 0h-279l-28 111q-4 -4 -29 -22l-33 -23q-8 -6 -31.5 -21.5t-36.5 -21.5l-37 -18q-24 -11 -43.5 -15t-45 -8.5t-49.5 -4.5q-117 0 -176.5 91.5t-59.5 226.5q0 307 475 344v137q0 113 -110 113q-94 0 -256 -66l-68 250q217 76 389 76q215 0 301 -100.5t86 -272.5v-411 q0 -129 31 -365zM524 266v187q-55 -6 -86.5 -12.5t-60.5 -31t-29 -67.5q0 -57 23.5 -90t60.5 -33q35 0 92 47zM174 1583l279 152l213 -398l-209 -90z" />
<glyph unicode="&#xe1;" horiz-adv-x="968" d="M895 0h-279l-28 111q-4 -4 -29 -22l-33 -23q-8 -6 -31.5 -21.5t-36.5 -21.5l-37 -18q-24 -11 -43.5 -15t-45 -8.5t-49.5 -4.5q-117 0 -176.5 91.5t-59.5 226.5q0 307 475 344v137q0 113 -110 113q-94 0 -256 -66l-68 250q217 76 389 76q215 0 301 -100.5t86 -272.5v-411 q0 -129 31 -365zM524 266v187q-55 -6 -86.5 -12.5t-60.5 -31t-29 -67.5q0 -57 23.5 -90t60.5 -33q35 0 92 47zM322 1337l239 396l240 -158l-297 -328z" />
<glyph unicode="&#xe2;" horiz-adv-x="968" d="M895 0h-279l-28 111q-4 -4 -29 -22l-33 -23q-8 -6 -31.5 -21.5t-36.5 -21.5l-37 -18q-24 -11 -43.5 -15t-45 -8.5t-49.5 -4.5q-117 0 -176.5 91.5t-59.5 226.5q0 307 475 344v137q0 113 -110 113q-94 0 -256 -66l-68 250q217 76 389 76q215 0 301 -100.5t86 -272.5v-411 q0 -129 31 -365zM524 266v187q-55 -6 -86.5 -12.5t-60.5 -31t-29 -67.5q0 -57 23.5 -90t60.5 -33q35 0 92 47zM477 1698l381 -332l-170 -135l-207 164l-211 -164l-161 119z" />
<glyph unicode="&#xe3;" horiz-adv-x="968" d="M895 0h-279l-28 111q-4 -4 -29 -22l-33 -23q-8 -6 -31.5 -21.5t-36.5 -21.5l-37 -18q-24 -11 -43.5 -15t-45 -8.5t-49.5 -4.5q-117 0 -176.5 91.5t-59.5 226.5q0 307 475 344v137q0 113 -110 113q-94 0 -256 -66l-68 250q217 76 389 76q215 0 301 -100.5t86 -272.5v-411 q0 -129 31 -365zM524 266v187q-55 -6 -86.5 -12.5t-60.5 -31t-29 -67.5q0 -57 23.5 -90t60.5 -33q35 0 92 47zM711 1575l125 -131q-129 -162 -271 -162q-72 0 -122 28.5t-70 28.5q-47 0 -152 -67l-112 153q131 137 266 138q59 0 110.5 -27t77.5 -27q66 0 148 66z" />
<glyph unicode="&#xe4;" horiz-adv-x="968" d="M895 0h-279l-28 111q-4 -4 -29 -22l-33 -23q-8 -6 -31.5 -21.5t-36.5 -21.5l-37 -18q-24 -11 -43.5 -15t-45 -8.5t-49.5 -4.5q-117 0 -176.5 91.5t-59.5 226.5q0 307 475 344v137q0 113 -110 113q-94 0 -256 -66l-68 250q217 76 389 76q215 0 301 -100.5t86 -272.5v-411 q0 -129 31 -365zM524 266v187q-55 -6 -86.5 -12.5t-60.5 -31t-29 -67.5q0 -57 23.5 -90t60.5 -33q35 0 92 47zM432 1454q0 -76 -52 -127t-124 -51q-78 0 -129 51t-51 127q0 78 51 129t129 51q72 0 124 -54t52 -126zM887 1454q0 -76 -53.5 -127t-131.5 -51q-74 0 -123 51 t-49 127q0 74 49.5 127t122.5 53q78 0 131.5 -54t53.5 -126z" />
<glyph unicode="&#xe5;" horiz-adv-x="968" d="M895 0h-279l-28 111q-4 -4 -29 -22l-33 -23q-8 -6 -31.5 -21.5t-36.5 -21.5l-37 -18q-24 -11 -43.5 -15t-45 -8.5t-49.5 -4.5q-117 0 -176.5 91.5t-59.5 226.5q0 307 475 344v137q0 113 -110 113q-94 0 -256 -66l-68 250q217 76 389 76q215 0 301 -100.5t86 -272.5v-411 q0 -129 31 -365zM524 266v187q-55 -6 -86.5 -12.5t-60.5 -31t-29 -67.5q0 -57 23.5 -90t60.5 -33q35 0 92 47zM762 1521.5q0 -118.5 -82 -202.5t-196.5 -84t-195.5 84t-81 202.5t82 203.5t194 85q115 0 197 -85t82 -203.5zM549 1522q0 41 -19.5 70.5t-46 29.5t-46 -29.5 t-19.5 -70.5t18.5 -70t46.5 -29q25 0 45.5 30t20.5 69z" />
<glyph unicode="&#xe6;" horiz-adv-x="1388" d="M950 -29q-207 0 -311 129q-160 -123 -317 -123q-129 0 -199 84t-70 220q0 186 125 271t350 103v115q0 55 -29.5 87t-78.5 32q-96 0 -258 -66l-68 250q217 76 385 76q145 0 238 -107q127 106 227 107q178 0 279.5 -138.5t101.5 -351.5q0 -31 -14 -174h-496 q25 -252 182 -252q84 0 238 82l76 -249q-166 -95 -361 -95zM901 913q-53 0 -81.5 -67.5t-28.5 -155.5h223q0 223 -113 223zM444 219q47 0 115 45q-27 94 -33 205q-174 -16 -174 -135q0 -47 26.5 -81t65.5 -34z" />
<glyph unicode="&#xe7;" horiz-adv-x="835" d="M754 303l61 -254q-98 -53 -256 -67l-12 -103q162 -59 162 -215q0 -119 -85 -173t-210 -54q-88 0 -172 22l45 168q70 -18 104 -18q94 0 94 63q0 72 -133 82l23 236q-324 68 -324 557q0 311 126 452.5t366 141.5q147 0 266 -43l-59 -277q-92 49 -183 49q-78 0 -119.5 -63.5 t-41.5 -224.5q0 -164 44 -249t125 -85q73 0 179 55z" />
<glyph unicode="&#xe8;" horiz-adv-x="942" d="M887 485h-527q14 -141 59.5 -195t137.5 -54q88 0 252 75l76 -248q-188 -92 -371 -92q-250 0 -353.5 157t-103.5 431q0 590 437 590q215 0 311 -135t96 -350q0 -95 -14 -179zM186 1583l279 152l213 -398l-209 -90zM469 918q-55 0 -83 -53.5t-32 -174.5h234 q2 113 -23.5 170.5t-95.5 57.5z" />
<glyph unicode="&#xe9;" horiz-adv-x="942" d="M887 485h-527q14 -141 59.5 -195t137.5 -54q88 0 252 75l76 -248q-188 -92 -371 -92q-250 0 -353.5 157t-103.5 431q0 590 437 590q215 0 311 -135t96 -350q0 -95 -14 -179zM332 1337l239 396l240 -158l-297 -328zM469 918q-55 0 -83 -53.5t-32 -174.5h234 q2 113 -23.5 170.5t-95.5 57.5z" />
<glyph unicode="&#xea;" horiz-adv-x="942" d="M887 485h-527q14 -141 59.5 -195t137.5 -54q88 0 252 75l76 -248q-188 -92 -371 -92q-250 0 -353.5 157t-103.5 431q0 590 437 590q215 0 311 -135t96 -350q0 -95 -14 -179zM489 1698l381 -332l-170 -135l-206 164l-211 -164l-162 119zM469 918q-55 0 -83 -53.5 t-32 -174.5h234q2 113 -23.5 170.5t-95.5 57.5z" />
<glyph unicode="&#xeb;" horiz-adv-x="942" d="M887 485h-527q14 -141 59.5 -195t137.5 -54q88 0 252 75l76 -248q-188 -92 -371 -92q-250 0 -353.5 157t-103.5 431q0 590 437 590q215 0 311 -135t96 -350q0 -95 -14 -179zM442 1454q0 -76 -52 -127t-124 -51q-78 0 -129 51t-51 127q0 78 51 129t129 51q72 0 124 -54 t52 -126zM897 1454q0 -76 -53 -127t-131 -51q-74 0 -123 51t-49 127q0 74 49 127t123 53q78 0 131 -54t53 -126zM469 918q-55 0 -83 -53.5t-32 -174.5h234q2 113 -23.5 170.5t-95.5 57.5z" />
<glyph unicode="&#xec;" horiz-adv-x="567" d="M459 0h-350v1120h350v-1120zM-18 1583l278 152l213 -398l-209 -90z" />
<glyph unicode="&#xed;" horiz-adv-x="567" d="M459 0h-350v1120h350v-1120zM127 1337l240 396l239 -158l-297 -328z" />
<glyph unicode="&#xee;" horiz-adv-x="567" d="M459 0h-350v1120h350v-1120zM285 1698l381 -332l-170 -135l-207 164l-211 -164l-162 119z" />
<glyph unicode="&#xef;" horiz-adv-x="567" d="M459 0h-350v1120h350v-1120zM238 1454q0 -76 -52.5 -127t-124.5 -51q-78 0 -129 51t-51 127q0 78 51.5 129t128.5 51q72 0 124.5 -54t52.5 -126zM692 1454q0 -76 -53 -127t-131 -51q-74 0 -123 51t-49 127q0 74 49 127t123 53q78 0 131 -54t53 -126z" />
<glyph unicode="&#xf0;" horiz-adv-x="1083" d="M455 1020l-125 154l137 120q-94 98 -229 148l122 264q199 -70 342 -207l172 148l115 -156l-160 -141q211 -301 211 -713q0 -307 -121.5 -486.5t-379.5 -179.5q-225 0 -355.5 131t-130.5 355q0 147 55.5 260.5t142.5 167t194.5 68t211.5 -32.5q-27 117 -75 213zM420 485 q0 -98 34.5 -162.5t94.5 -64.5q137 0 137 363q0 12 -1 39.5t-1 41.5q-113 43 -188.5 -11t-75.5 -206z" />
<glyph unicode="&#xf1;" horiz-adv-x="1120" d="M1018 0h-348v729q0 61 -17.5 87t-56.5 26q-66 0 -143 -72v-770h-349v1120h308l18 -100q184 129 326 129q131 0 196.5 -77t65.5 -267v-805zM805 1575l125 -131q-129 -162 -271 -162q-72 0 -122 28.5t-70 28.5q-47 0 -152 -67l-112 153q131 137 266 138q59 0 110.5 -27 t77.5 -27q66 0 148 66z" />
<glyph unicode="&#xf2;" horiz-adv-x="1073" d="M53 551q0 276 119 437t377 161q469 0 469 -571q0 -279 -121 -443t-371 -164q-244 0 -358.5 155t-114.5 425zM403 573q0 -176 33 -254.5t103 -78.5q129 0 129 325q0 164 -31 241t-100.5 77t-101.5 -71t-32 -239zM238 1583l278 152l213 -398l-209 -90z" />
<glyph unicode="&#xf3;" horiz-adv-x="1073" d="M53 551q0 276 119 437t377 161q469 0 469 -571q0 -279 -121 -443t-371 -164q-244 0 -358.5 155t-114.5 425zM403 573q0 -176 33 -254.5t103 -78.5q129 0 129 325q0 164 -31 241t-100.5 77t-101.5 -71t-32 -239zM383 1337l240 396l239 -158l-297 -328z" />
<glyph unicode="&#xf4;" horiz-adv-x="1073" d="M53 551q0 276 119 437t377 161q469 0 469 -571q0 -279 -121 -443t-371 -164q-244 0 -358.5 155t-114.5 425zM403 573q0 -176 33 -254.5t103 -78.5q129 0 129 325q0 164 -31 241t-100.5 77t-101.5 -71t-32 -239zM541 1698l381 -332l-170 -135l-207 164l-211 -164l-162 119 z" />
<glyph unicode="&#xf5;" horiz-adv-x="1073" d="M53 551q0 276 119 437t377 161q469 0 469 -571q0 -279 -121 -443t-371 -164q-244 0 -358.5 155t-114.5 425zM403 573q0 -176 33 -254.5t103 -78.5q129 0 129 325q0 164 -31 241t-100.5 77t-101.5 -71t-32 -239zM772 1575l125 -131q-129 -162 -270 -162q-72 0 -122 28.5 t-71 28.5q-47 0 -151 -67l-113 153q131 137 266 138q59 0 110.5 -27t78.5 -27q65 0 147 66z" />
<glyph unicode="&#xf6;" horiz-adv-x="1073" d="M53 551q0 276 119 437t377 161q469 0 469 -571q0 -279 -121 -443t-371 -164q-244 0 -358.5 155t-114.5 425zM403 573q0 -176 33 -254.5t103 -78.5q129 0 129 325q0 164 -31 241t-100.5 77t-101.5 -71t-32 -239zM494 1454q0 -76 -52.5 -127t-124.5 -51q-78 0 -129 51 t-51 127q0 78 51.5 129t128.5 51q72 0 124.5 -54t52.5 -126zM948 1454q0 -76 -53 -127t-131 -51q-74 0 -123 51t-49 127q0 74 49 127t123 53q78 0 131 -54t53 -126z" />
<glyph unicode="&#xf7;" horiz-adv-x="1069" d="M1010 668l-828 -365l-94 256l827 365zM920 176q0 -84 -58.5 -144.5t-138.5 -60.5q-84 0 -143.5 60.5t-59.5 144.5q0 80 58.5 139.5t144.5 59.5q82 0 139.5 -59.5t57.5 -139.5zM629 1071q0 -84 -58.5 -144.5t-138.5 -60.5q-84 0 -143.5 60.5t-59.5 144.5q0 80 58.5 139.5 t144.5 59.5q82 0 139.5 -59.5t57.5 -139.5z" />
<glyph unicode="&#xf8;" horiz-adv-x="1073" d="M53 551q0 276 119 437t377 161q166 0 274 -76l127 123l234 -244l-185 -176q18 -96 19 -198q0 -279 -121 -443t-371 -164q-166 0 -276 76l-127 -125l-227 244l178 172q-21 90 -21 213zM403 573q0 -176 33 -254.5t103 -78.5q129 0 129 325q0 164 -31 241t-100.5 77 t-101.5 -71t-32 -239z" />
<glyph unicode="&#xf9;" d="M102 1120h349v-729q0 -63 17 -87.5t56 -24.5q66 0 144 71v770h348v-1120h-307l-19 98q-184 -127 -325 -127q-131 0 -197 78t-66 266v805zM246 1583l278 152l213 -398l-209 -90z" />
<glyph unicode="&#xfa;" d="M102 1120h349v-729q0 -63 17 -87.5t56 -24.5q66 0 144 71v770h348v-1120h-307l-19 98q-184 -127 -325 -127q-131 0 -197 78t-66 266v805zM393 1337l240 396l239 -158l-297 -328z" />
<glyph unicode="&#xfb;" d="M102 1120h349v-729q0 -63 17 -87.5t56 -24.5q66 0 144 71v770h348v-1120h-307l-19 98q-184 -127 -325 -127q-131 0 -197 78t-66 266v805zM549 1698l381 -332l-170 -135l-207 164l-211 -164l-162 119z" />
<glyph unicode="&#xfc;" d="M102 1120h349v-729q0 -63 17 -87.5t56 -24.5q66 0 144 71v770h348v-1120h-307l-19 98q-184 -127 -325 -127q-131 0 -197 78t-66 266v805zM502 1454q0 -76 -52.5 -127t-123.5 -51q-78 0 -129.5 51t-51.5 127q0 78 51.5 129t129.5 51q72 0 124 -54t52 -126zM956 1454 q0 -76 -53 -127t-131 -51q-74 0 -123 51t-49 127q0 74 49 127t123 53q78 0 131 -54t53 -126z" />
<glyph unicode="&#xfd;" horiz-adv-x="987" d="M1030 1120l-323 -1124q-39 -137 -95.5 -237.5t-129 -162t-137 -95t-155.5 -64.5l-124 278q244 109 307 316l22 73h-121l-299 1016h371l170 -760l154 760h360zM360 1337l240 396l240 -158l-297 -328z" />
<glyph unicode="&#xfe;" horiz-adv-x="1093" d="M1047 577.5q0 -251.5 -139.5 -429t-360.5 -177.5q-29 0 -90 17v-531h-351v2208h349v-557q80 41 151 41q203 0 322 -160t119 -411.5zM680 553q0 311 -125 311q-57 0 -100 -51v-522q57 -35 77 -35q70 0 109 93t39 204z" />
<glyph unicode="&#xff;" horiz-adv-x="987" d="M1030 1120l-323 -1124q-39 -137 -95.5 -237.5t-129 -162t-137 -95t-155.5 -64.5l-124 278q244 109 307 316l22 73h-121l-299 1016h371l170 -760l154 760h360zM471 1454q0 -76 -52 -127t-124 -51q-78 0 -129 51t-51 127q0 78 51 129t129 51q72 0 124 -54t52 -126z M926 1454q0 -76 -53.5 -127t-131.5 -51q-74 0 -123 51t-49 127q0 74 49.5 127t122.5 53q78 0 131.5 -54t53.5 -126z" />
<glyph unicode="&#x152;" horiz-adv-x="1783" d="M1729 0h-658q-31 0 -176 -15.5t-197 -15.5q-133 0 -239.5 41t-173 113t-113.5 152.5t-70.5 175t-33 167t-9.5 140.5q0 94 13.5 187t54.5 207t107.5 198t185.5 142t274 58q41 0 149.5 -14t188.5 -14h660v-283h-523v-295h482v-280h-482v-381h560v-283zM825 272v969 q-41 20 -131 21q-68 0 -119 -37t-78.5 -89.5t-45 -126t-21.5 -131t-4 -120.5q0 -502 268 -502q70 0 131 16z" />
<glyph unicode="&#x153;" horiz-adv-x="1521" d="M1481 647q0 -43 -23 -178h-506q23 -98 67 -167t93 -69q115 0 272 82l80 -245q-170 -98 -387 -99q-160 0 -284 174q-139 -174 -287 -174q-115 0 -202 44t-136 107.5t-80 148.5t-41 155t-10 137q0 61 10 129t43 152t83 149.5t140 110.5t205 45q147 0 279 -162 q117 162 278 162q193 0 298.5 -148.5t107.5 -353.5zM401 573q0 -317 111 -317q113 0 113 307q0 111 -25 207t-88 96q-111 0 -111 -293zM1057 913q-104 0 -105 -239h215q2 104 -26.5 171.5t-83.5 67.5z" />
<glyph unicode="&#x178;" horiz-adv-x="1136" d="M1190 1522l-442 -1014v-508h-349v489l-450 1033h387l244 -670l249 670h361zM528 1823q0 -80 -57 -133.5t-135 -53.5q-84 0 -140.5 54.5t-56.5 132.5q0 80 58.5 134t138.5 54q82 0 137 -56t55 -132zM1022 1823q0 -78 -58.5 -132.5t-144.5 -54.5q-78 0 -133 54.5t-55 132.5 q0 76 54 132t134 56q84 0 143.5 -56t59.5 -132z" />
<glyph unicode="&#x2c6;" horiz-adv-x="505" d="M225 1698l381 -332l-170 -135l-207 164l-211 -164l-161 119z" />
<glyph unicode="&#x2dc;" horiz-adv-x="589" d="M528 1575l125 -131q-129 -162 -270 -162q-72 0 -122 28.5t-71 28.5q-47 0 -151 -67l-113 153q131 137 267 138q59 0 110 -27t78 -27q65 0 147 66z" />
<glyph unicode="&#x2000;" horiz-adv-x="1054" />
<glyph unicode="&#x2001;" horiz-adv-x="2111" />
<glyph unicode="&#x2002;" horiz-adv-x="1054" />
<glyph unicode="&#x2003;" horiz-adv-x="2111" />
<glyph unicode="&#x2004;" horiz-adv-x="702" />
<glyph unicode="&#x2005;" horiz-adv-x="526" />
<glyph unicode="&#x2006;" horiz-adv-x="350" />
<glyph unicode="&#x2007;" horiz-adv-x="350" />
<glyph unicode="&#x2008;" horiz-adv-x="262" />
<glyph unicode="&#x2009;" horiz-adv-x="421" />
<glyph unicode="&#x200a;" horiz-adv-x="116" />
<glyph unicode="&#x2010;" horiz-adv-x="768" d="M707 516h-646v281h646v-281z" />
<glyph unicode="&#x2011;" horiz-adv-x="768" d="M707 516h-646v281h646v-281z" />
<glyph unicode="&#x2012;" horiz-adv-x="768" d="M707 516h-646v281h646v-281z" />
<glyph unicode="&#x2013;" horiz-adv-x="1146" d="M1083 516h-1022v281h1022v-281z" />
<glyph unicode="&#x2014;" horiz-adv-x="1792" d="M1729 516h-1668v281h1668v-281z" />
<glyph unicode="&#x2018;" horiz-adv-x="563" d="M362 1843l195 -174q-129 -141 -129 -231q0 -37 43 -94.5t43 -122.5q0 -80 -56.5 -130.5t-140.5 -50.5q-109 0 -168 80t-59 209q0 246 272 514z" />
<glyph unicode="&#x2019;" horiz-adv-x="563" d="M242 969l-195 174q129 141 129 231q0 37 -43 94.5t-43 122.5q0 80 56.5 130.5t140.5 50.5q109 0 168 -80t59 -209q0 -246 -272 -514z" />
<glyph unicode="&#x201a;" horiz-adv-x="555" d="M240 -424l-195 174q129 141 129 232q0 37 -43 94t-43 123q0 80 56.5 130t140.5 50q109 0 168 -80t59 -209q0 -246 -272 -514z" />
<glyph unicode="&#x201c;" horiz-adv-x="1075" d="M362 1843l195 -174q-129 -141 -129 -231q0 -37 43 -94.5t43 -122.5q0 -80 -56.5 -130.5t-140.5 -50.5q-109 0 -168 80t-59 209q0 246 272 514zM879 1843l194 -174q-129 -141 -129 -231q0 -37 43 -94.5t43 -122.5q0 -80 -56 -130.5t-140 -50.5q-109 0 -168.5 80t-59.5 209 q1 246 273 514z" />
<glyph unicode="&#x201d;" horiz-adv-x="1075" d="M242 969l-195 174q129 141 129 231q0 37 -43 94.5t-43 122.5q0 80 56.5 130.5t140.5 50.5q109 0 168 -80t59 -209q0 -246 -272 -514zM760 969l-195 174q129 141 129 231q0 37 -43 94.5t-43 122.5q0 80 56.5 130.5t140.5 50.5q109 0 168 -80t59 -209q0 -246 -272 -514z " />
<glyph unicode="&#x201e;" horiz-adv-x="1062" d="M240 -420l-195 174q129 141 129 232q0 37 -43 94t-43 123q0 80 56.5 130t140.5 50q109 0 168 -80t59 -209q0 -246 -272 -514zM760 -420l-195 174q129 141 129 232q0 37 -43 94t-43 123q0 80 56.5 130t140.5 50q109 0 168 -80t59 -209q0 -246 -272 -514z" />
<glyph unicode="&#x2022;" horiz-adv-x="768" d="M-47 708.5q0 176.5 128 304.5t306 128q176 0 303 -128t127 -304.5t-127 -303t-303 -126.5q-180 0 -307 126.5t-127 303z" />
<glyph unicode="&#x2026;" horiz-adv-x="1652" d="M492 176q0 -84 -58.5 -144.5t-138.5 -60.5q-84 0 -143.5 60.5t-59.5 144.5q0 80 58.5 139.5t144.5 59.5q82 0 139.5 -59.5t57.5 -139.5zM1040 176q0 -84 -58 -144.5t-138 -60.5q-84 0 -143.5 60.5t-59.5 144.5q0 80 58.5 139.5t144.5 59.5q82 0 139 -59.5t57 -139.5z M1593 176q0 -84 -58 -144.5t-138 -60.5q-84 0 -143.5 60.5t-59.5 144.5q0 80 58.5 139.5t144.5 59.5q82 0 139 -59.5t57 -139.5z" />
<glyph unicode="&#x202f;" horiz-adv-x="421" />
<glyph unicode="&#x2039;" horiz-adv-x="780" d="M705 952l-230 -389l230 -381l-273 -108l-377 491l377 490z" />
<glyph unicode="&#x203a;" horiz-adv-x="782" d="M326 567l-248 377l270 113l379 -492l-379 -489l-272 98z" />
<glyph unicode="&#x205f;" horiz-adv-x="526" />
<glyph unicode="&#x20ac;" horiz-adv-x="1101" d="M864 815h-317v-43v-57h317v-248h-289q51 -211 197 -211q88 0 229 68l86 -279q-190 -74 -348 -74q-227 0 -361 132.5t-179 363.5h-144v248h119v24q0 51 2 76h-121v250h154q55 225 190.5 356t362.5 131q141 0 309 -69l-88 -285q-121 68 -195 68q-76 0 -130 -39t-85 -162 h291v-250z" />
<glyph unicode="&#x2122;" horiz-adv-x="1542" d="M614 1460h-208v-649h-242v649h-209v205h659v-205zM1491 813h-250l-18 412l-140 -412h-104l-143 414l-31 -414h-225l61 852h213l182 -483l187 483h207z" />
<glyph unicode="&#xe000;" horiz-adv-x="1120" d="M0 1120h1120v-1120h-1120v1120z" />
<glyph unicode="&#xfb01;" horiz-adv-x="1204" d="M1010 1589l-97 -239q-180 88 -282 88q-141 0 -142 -213v-105h609v-1120h-348v868h-261v-868h-348v868h-118v252h118v105q0 217 113 344t340 127q183 -1 416 -107z" />
<glyph unicode="&#xfb02;" horiz-adv-x="1212" d="M1106 0h-348v1411q-82 29 -144 29q-72 0 -98.5 -53.5t-26.5 -165.5v-101h170v-252h-170v-868h-348v868h-118v252h118v105q0 471 465 471q248 0 500 -135v-1561z" />
<glyph unicode="&#xfb03;" horiz-adv-x="1908" d="M1802 0h-350v1120h350v-1120zM1820 1479q0 -80 -57.5 -136.5t-139 -56.5t-137 56.5t-55.5 136.5t56.5 137t136 57t138 -58t58.5 -136zM1538 1647l-65 -246q-84 37 -187 37q-76 0 -101.5 -42t-25.5 -151v-125h205v-252h-205v-868h-348v868h-116v252h116v125 q0 236 98.5 343.5t319.5 107.5q162 0 309 -49zM866 1647l-65 -246q-84 37 -187 37q-76 0 -101.5 -42t-25.5 -151v-125h205v-252h-205v-868h-348v868h-116v252h116v125q0 236 98.5 343.5t319.5 107.5q162 0 309 -49z" />
<glyph unicode="&#xfb04;" horiz-adv-x="1908" d="M1802 0h-353v1665h353v-1665zM1538 1647l-65 -246q-84 37 -187 37q-76 0 -101.5 -42t-25.5 -151v-125h205v-252h-205v-868h-348v868h-116v252h116v125q0 236 98.5 343.5t319.5 107.5q162 0 309 -49zM866 1647l-65 -246q-84 37 -187 37q-76 0 -101.5 -42t-25.5 -151v-125 h205v-252h-205v-868h-348v868h-116v252h116v125q0 236 98.5 343.5t319.5 107.5q162 0 309 -49z" />
</font>
</defs>
</svg>
